South Park Season 23 (2019) - fiveofseven

seeders: 37
leechers: 10
updated:
Added by fiveofseven in TV
Torrent reliable.
Torrent verified.


ᕦ( ▨̅ ͜▨̅ )ᕥ SPECIAL DEAL - OFFER ᕦ( ▨̅ ͜▨̅ )ᕥ
strongly advises you to use Nord while downloading torrents.
Nord is the safest on the market, and the fastest as well.
No IP Log is saved using Nord, avoid other providers and choose the safest one.
Click here and buy Nord it's on rebates today!
We were able to verify your IP: 3.233.215.231, country: United States.
If we can do that, others can too, protect your privacy with Nord.
is trying the best for you!
ᕦ( ▨̅ ͜▨̅ )ᕥ SPECIAL DEAL - OFFER ᕦ( ▨̅ ͜▨̅ )ᕥ


South Park Season 23 (2019) - fiveofseven Size: 875.95 MB (918500147 Bytes)

Description

PLOT - Follows the misadventures of four irreverent grade-schoolers
in the quiet, dysfunctional town of South Park, Colorado.
  
http://extraimage.net/images/2019/12/13/638a9afb06d7ed16b917d30b8c0e9cf9.jpg 
 
Encoder: fiveofseven
Source: 720p.WEB-DL.AAC2.0.H264-LAZY, 1080p.AMZN.WEBRip.DDP2.0.x264-NTb
Rating: TV-MA (Uncensored)
Genre: Animation, Comedy
Subtitles: English

Video
Duration                                 : 22mn 23s
Bit rate                                 : 482 Kbps
Maximum bit rate                         : 2 188 Kbps
Width                                    : 720 pixels
Height                                   : 400 pixels
Display aspect ratio                     : 16:9
Frame rate mode                          : Constant
Frame rate                               : 23.976 fps
Color space                              : YUV
Chroma subsampling                       : 4:2:0
Bit depth                                : 8 bits
Scan type                                : Progressive
Bits/(Pixel*Frame)                       : 0.070
Stream size                              : 77.3 MiB (88%)
Title                                    : sp.mp4
Writing library                          : x264 core 146 r2538 121396c
Language                                 : English

Audio
Format                                   : AAC
Format/Info                              : Advanced Audio Codec
Format profile                           : LC
Codec ID                                 : 40
Duration                                 : 22mn 23s
Bit rate mode                            : Variable
Bit rate                                 : 59.8 Kbps
Maximum bit rate                         : 99.0 Kbps
Channel count                            : 2 channels
Channel positions                        : Front: L R
Sampling rate                            : 48.0 KHz
Compression mode                         : Lossy
Stream size                              : 9.58 MiB (11%)
Title                                    : aac.mp4
Language                                 : English
        
        

Sharing Widget


Download torrent
Size: 875.95 MB
seeders:37
leechers:10
South Park Season 23 (2019) - fiveofseven - (918500147 Bytes)



To share this torrent use the code below and insert it into comments, status messages, forum posts or your signature.

Torrent: South Park Season 23 (2019) - fiveofseven

Trackers

tracker name
udp://tracker.leechers-paradise.org:6969
udp://tracker.openbittorrent.com:80
udp://open.demonii.com:1337
udp://tracker.coppersurfer.tk:6969
udp://exodus.desync.com:6969
µTorrent compatible trackers list

Locations

name
KickassTorrents
Torrent hash: 8C91927906D0814CFE5889A07AEB7F8404A64803

ᕦ( ▨̅ ͜▨̅ )ᕥ SPECIAL DEAL - OFFER ᕦ( ▨̅ ͜▨̅ )ᕥ
strongly advises you to use Nord while downloading torrents.
Nord is the safest on the market, and the fastest as well.
No IP Log is saved using Nord, avoid other providers and choose the safest one.
Click here and buy Nord it's on rebates today!
We were able to verify your IP: 3.233.215.231, country: United States.
If we can do that, others can too, protect your privacy with Nord.
is trying the best for you!
ᕦ( ▨̅ ͜▨̅ )ᕥ SPECIAL DEAL - OFFER ᕦ( ▨̅ ͜▨̅ )ᕥ


All Comments

*comments box temporarily disabled*
Report a bug