Blood.Fest.2018.BDRip.x264.LG

seeders: 2
leechers: 1
updated:
Added by LifeLongg in Other


ᕦ( ▨̅ ͜▨̅ )ᕥ SPECIAL DEAL - OFFER ᕦ( ▨̅ ͜▨̅ )ᕥ
strongly advises you to use Nord while downloading torrents.
Nord is the safest on the market, and the fastest as well.
No IP Log is saved using Nord, avoid other providers and choose the safest one.
Click here and buy Nord it's on rebates today!
We were able to verify your IP: 18.210.24.208, country: United States and you are near by: Ashburn.
If we can do that, others can too, protect your privacy with Nord.
is trying the best for you!
ᕦ( ▨̅ ͜▨̅ )ᕥ SPECIAL DEAL - OFFER ᕦ( ▨̅ ͜▨̅ )ᕥ


Blood.Fest.2018.BDRip.x264.LG Size: 711.1 MB (745642393 Bytes)

Description

Quote: 
 
 

*******************Please Support Our Sponsors!***************

 

******************************Thumbnail:**********************

 


******************************Screenshots:******************** 

Screenshot 1 

Screenshot 2 

Screenshot 3 

Screenshot 4 

Screenshot 5 

Screenshot 6 

Screenshot 7 

Screenshot 8 

Screenshot 9 

Screenshot 0 

********************************************************** 

18+Blood.Fest.2018.BDRip.x264.LG.mp4
Format : MPEG-4
Format profile : Base Media
Codec ID : isom (isom/iso2/avc1/mp41)
File size : 695 MiB
Duration : 1 h 32 min
Overall bit rate mode : Variable
Overall bit rate : 1 048 kb/s


Video
ID : 1
Format : AVC
Format/Info : Advanced Video Codec
Format profile : [email protected] 
Format settings : CABAC / 1 Ref Frames
Format settings, CABAC : Yes
Format settings, Reference frames : 1 frame
Codec ID : avc1
Codec ID/Info : Advanced Video Coding
Duration : 1 h 32 min
Bit rate mode : Variable
Bit rate : 914 kb/s
Maximum bit rate : 2 700 kb/s
Width : 720 pixels
Height : 360 pixels
Display aspect ratio : 2.000
Frame rate mode : Constant
Frame rate : 23.976 (23976/1000) FPS
Color space : YUV
Chroma subsampling : 4:2:0
Bit depth : 8 bits
Scan type : Progressive
Bits/(Pixel*Frame) : 0.147
Stream size : 606 MiB (87%)


Audio
ID : 2
Format : AAC LC
Format/Info : Advanced Audio Codec Low Complexity
Codec ID : mp4a-40-2
Duration : 1 h 32 min
Bit rate mode : Constant
Bit rate : 129 kb/s
Channel(s) : 2 channels
Channel layout : L R
Sampling rate : 48.0 kHz
Frame rate : 46.875 FPS (1024 SPF)
Compression mode : Lossy
Stream size : 85.8 MiB (12%)
Language : English
Default : Yes
Alternate group : 1



********************************************************** 

  
 

Sharing Widget


Download torrent
Size: 711.1 MB
seeders:2
leechers:1
Blood.Fest.2018.BDRip.x264.LG - (745642393 Bytes)



To share this torrent use the code below and insert it into comments, status messages, forum posts or your signature.

Torrent: Blood.Fest.2018.BDRip.x264.LG

Trackers

tracker name
udp://tracker.openbittorrent.com:80/announce
udp://tracker.opentrackr.org:1337/announce
UDP://TRACKER.LEECHERS-PARADISE.ORG:6969/ANNOUNCE
udp://tracker.zer0day.to:1337/announce
udp://tracker.leechers-paradise.org:6969/announce
udp://coppersurfer.tk:6969/announce
µTorrent compatible trackers list

Locations

name
KickassTorrents
Torrent hash: 9751CCC043813B18D7F3BF98D2FAC846D05220D0

ᕦ( ▨̅ ͜▨̅ )ᕥ SPECIAL DEAL - OFFER ᕦ( ▨̅ ͜▨̅ )ᕥ
strongly advises you to use Nord while downloading torrents.
Nord is the safest on the market, and the fastest as well.
No IP Log is saved using Nord, avoid other providers and choose the safest one.
Click here and buy Nord it's on rebates today!
We were able to verify your IP: 18.210.24.208, country: United States and you are near by: Ashburn.
If we can do that, others can too, protect your privacy with Nord.
is trying the best for you!
ᕦ( ▨̅ ͜▨̅ )ᕥ SPECIAL DEAL - OFFER ᕦ( ▨̅ ͜▨̅ )ᕥ


All Comments

*comments box temporarily disabled*
Report a bug